#TITLE:Balalaika Vodka & Rock n' Roll;
#SUBTITLE:;
#ARTIST:Unknown artist;
#TITLETRANSLIT:;
#SUBTITLETRANSLIT:;
#ARTISTTRANSLIT:;
#GENRE:;
#CREDIT:;
#BANNER:bvr.jpg;
#BACKGROUND:;
#LYRICSPATH:;
#CDTITLE:;
#MUSIC:bvr.mp3;
#OFFSET:-0.008;
#SAMPLESTART:14.320;
#SAMPLELENGTH:12.000;
#SELECTABLE:YES;
#BPMS:0.000=160.000;
#STOPS:;
#DELAYS:;
#TIMESIGNATURES:0.000=4=4
;
#BGCHANGES:;
#KEYSOUNDS:;
#ATTACKS:;
// cache tags:
#FIRSTBEAT:22.500;
#LASTBEAT:244.000;
#SONGFILENAME:/Songs/ParaPara/Balalaika Vodka & Rock n' Roll/Balalaika Vodka & Rock n' Roll.sm;
#HASMUSIC:1;
#HASBANNER:1;
#MUSICLENGTH:94.197;
// end cache tags

//---------------para-single - Blank----------------
#NOTES:
     para-single:
     Blank:
     Beginner:
     1:
     0.240,0.324,0.223,0.212,0.000,117.000,21.000,20.000,0.000,0.000,0.000,0.000,-1.000,-1.000,0.240,0.324,0.223,0.212,0.000,117.000,21.000,20.000,0.000,0.000,0.000,0.000,-1.000,-1.000:
00000
00000
00000
00000
,
00000
00000
00000
00000
,
00000
00000
00000
00000
,
00000
00000
00000
00000
,
00000
00000
00000
00000
,
00000
00000
00000
00000
00000
01000
00000
00000
,
00000
00010
00010
00100
,
01000
00000
00000
00000
00000
00010
00000
00000
,
00000
01000
01000
00100
,
00010
00000
00000
00000
00000
01000
00000
00000
,
00000
00000
00010
00000
00000
00010
00000
00000
,
00000
00000
01000
00000
00000
01010
00000
00000
,
00000
01010
00001
00000
,
10000
00000
00100
01010
,
02020
03030
00100
00000
,
00020
00030
00010
00010
,
01000
01000
00001
10000
,
00001
10000
00100
01010
,
00000
01010
00100
00000
,
00020
00030
00010
00010
,
01000
01000
00000
00000
,
00000
00000
00000
00000
,
01000
00100
00020
00000
,
20000
00030
00000
00000
,
30000
00000
00000
00000
00100
01000
00000
00000
,
00100
01000
00000
00000
01000
00000
00000
00000
,
01000
00000
00010
00000
,
00010
00000
00000
00000
01000
00100
00010
00000
,
00010
00100
01000
00000
00000
02020
00000
03030
,
00000
00000
00010
00100
,
00000
00000
00000
00010
,
00000
02000
00000
00000
,
00000
03000
01000
00100
,
00100
00020
00000
00000
,
00000
00000
00030
00000
00010
00000
00100
01000
,
10000
00000
00000
00000
10100
01010
00000
00000
,
00101
01010
00000
00000
00000
00000
02020
00000
,
03030
00000
00010
00100
,
00000
00000
00000
00010
,
00000
02000
00000
00000
,
00000
03000
01000
00100
,
00100
00020
00000
00000
,
00000
00000
00030
00000
00010
00000
00100
01000
,
10000
00000
00000
00000
10100
01010
00000
00000
,
00101
01010
00000
00000
00000
00000
02020
00000
,
03030
00000
00000
00000
00000
01000
00000
00000
,
00000
00000
00000
00000
00000
01000
00000
00000
,
00000
00000
00000
00000
,
00000
00000
02020
03030
,
00000
00000
00000
00000
00000
01000
00000
00000
,
00000
00000
00000
00000
00000
01000
00000
00000
,
00000
00000
00000
00000
,
00000
00000
02020
03030
,
00000
00000
00000
00000
00000
01000
00000
00000
,
00000
00010
00010
00100
,
01000
00000
00000
00000
00000
00010
00000
00000
,
00000
01000
01000
00100
,
00010
00000
00000
00000
00000
01000
00000
00000
,
00000
00000
00010
00000
00000
00010
00000
00000
,
00000
00000
01000
00000
00000
01010
00000
00000
,
00000
01010
00001
00000
,
10000
00000
00000
00000
;

//---------------para-single - Blank----------------
#NOTES:
     para-single:
     Blank:
     Edit:
     1:
     0.240,0.324,0.223,0.212,0.000,117.000,21.000,20.000,0.000,0.000,0.000,0.000,-1.000,-1.000,0.240,0.324,0.223,0.212,0.000,117.000,21.000,20.000,0.000,0.000,0.000,0.000,-1.000,-1.000:
00000
00000
00000
00000
,
00000
00000
00000
00000
,
00000
00000
00000
00000
,
00000
00000
00000
00000
,
00000
00000
00000
00000
,
00000
00000
00000
00000
00000
01000
00000
00000
,
00000
00010
00010
00100
,
01000
00000
00000
00000
00000
00010
00000
00000
,
00000
01000
01000
00100
,
00010
00000
00000
00000
00000
01000
00000
00000
,
00000
00000
00010
00000
00000
00010
00000
00000
,
00000
00000
01000
00000
00000
01010
00000
00000
,
00000
01010
00001
00000
,
10000
00000
00100
01010
,
02020
03030
00100
00000
,
00020
00030
00010
00010
,
01000
01000
00001
10000
,
00001
10000
00100
01010
,
00000
01010
00100
00000
,
00020
00030
00010
00010
,
01000
01000
00000
00000
,
00000
00000
00000
00000
,
01000
00100
00020
00000
,
20000
00030
00000
00000
,
30000
00000
00000
00000
00100
01000
00000
00000
,
00100
01000
00000
00000
01000
00000
00000
00000
,
01000
00000
00010
00000
,
00010
00000
00000
00000
01000
00100
00010
00000
,
00010
00100
01000
00000
00000
02020
00000
03030
,
00000
00000
00010
00100
,
00000
00000
00000
00010
,
00000
02000
00000
00000
,
00000
03000
01000
00100
,
00100
00020
00000
00000
,
00000
00000
00030
00000
00010
00000
00100
01000
,
10000
00000
00000
00000
10100
01010
00000
00000
,
00101
01010
00000
00000
00000
00000
02020
00000
,
03030
00000
00010
00100
,
00000
00000
00000
00010
,
00000
02000
00000
00000
,
00000
03000
01000
00100
,
00100
00020
00000
00000
,
00000
00000
00030
00000
00010
00000
00100
01000
,
10000
00000
00000
00000
10100
01010
00000
00000
,
00101
01010
00000
00000
00000
00000
02020
00000
,
03030
00000
00000
00000
00000
01000
00000
00000
,
00000
00000
00000
00000
00000
01000
00000
00000
,
00000
00000
00000
00000
,
00000
00000
02020
03030
,
00000
00000
00000
00000
00000
01000
00000
00000
,
00000
00000
00000
00000
00000
01000
00000
00000
,
00000
00000
00000
00000
,
00000
00000
02020
03030
,
00000
00000
00000
00000
00000
01000
00000
00000
,
00000
00010
00010
00100
,
01000
00000
00000
00000
00000
00010
00000
00000
,
00000
01000
01000
00100
,
00010
00000
00000
00000
00000
01000
00000
00000
,
00000
00000
00010
00000
00000
00010
00000
00000
,
00000
00000
01000
00000
00000
01010
00000
00000
,
00000
01010
00001
00000
,
10000
00000
00000
00000
;
